#TITLE:Without Your Love;
#SUBTITLE:;
#ARTIST:JTL;
#TITLETRANSLIT:Without Your Love;
#SUBTITLETRANSLIT:;
#ARTISTTRANSLIT:JTL;
#CREDIT:;
#BANNER:Without Your Love-bn.png;
#BACKGROUND:Without Your Love-bg.png;
#LYRICSPATH:;
#CDTITLE:pm4cd.png;
#MUSIC:Without Your Love.mp3;
#OFFSET:0.040;
#SAMPLESTART:59.939;
#SAMPLELENGTH:20.000;
#SELECTABLE:YES;
#BPMS:0.000=67.000,16.750=134.000,52.750=67.000,54.750=134.000;
#STOPS:;
#BGCHANGES:;
// cache tags:
#FIRSTBEAT:0.750;
#LASTBEAT:538.750;
#SONGFILENAME:Songs/Music V.I.P ^_^/Without Your Love/Without Your Love.sm;
#HASMUSIC:1;
#HASBANNER:1;
#MUSICLENGTH:254.463;
// end cache tags

//---------------dance-single - ----------------
#NOTES:
     dance-single:
     :
     Hard:
     10:
     0.894,0.979,1.000,0.149,1.000,1094.000,447.000,38.000,0.000,55.000:
0000
0000
0000
0000
0000
0000
0220
0000
0000
0000
0000
0000
0000
0000
0000
0000
0000
0000
0000
0000
0000
0000
1331
0000
0000
0000
0000
0000
0001
0000
0000
0001
,
0000
0000
0000
0000
1000
0000
0000
0000
0000
0000
0000
0000
0001
0000
0000
0000
0000
0000
0001
0000
0000
0000
1010
0000
0000
0000
0000
0000
0001
0000
0000
0001
,
0000
0000
0000
0000
1000
0000
0000
0000
0000
0000
0000
0000
0001
0000
0000
0000
0000
0000
1000
0000
0000
0000
0101
0000
0000
0000
0000
0000
0001
0000
0000
0001
,
0000
0000
0000
0000
1000
0000
0000
0001
0000
0000
0000
0000
0000
0000
1000
0000
0001
0000
0000
0000
0000
0000
1010
0000
0000
0000
0000
0000
0001
0000
0000
0001
,
0000
0000
0000
2200
0000
0000
0000
0000
0000
0000
0000
0000
0000
0000
0000
3301
,
0010
0100
1000
0011
0000
0001
0000
0101
0000
0010
0000
1100
0000
0100
0000
0001
,
0010
0100
1000
0011
0000
0001
0000
0101
0000
0010
0000
1100
0000
0100
0000
1000
,
0100
0010
0001
0110
0000
0100
0000
1010
0000
0100
0000
0110
0000
0010
0000
0101
,
0000
0010
0000
1100
0000
0000
0000
0011
0000
0000
0000
1100
0000
0000
0000
0011
,
0000
0000
0000
0010
0100
2000
0000
0010
0000
0100
0000
0011
0000
0001
0000
0101
,
0000
0010
0000
3011
0000
0010
0000
0101
0000
0010
0000
0110
0000
0010
0000
1010
,
0000
0100
0000
0100
0010
0002
0000
1000
0000
0100
0000
1100
0000
0100
0000
1010
,
0000
0100
0000
0113
0000
0010
0000
1001
0000
0010
0000
0110
0000
0100
0000
1001
,
0000
0110
0000
0022
0000
0000
0000
0000
0000
0000
0000
0133
0000
0010
0000
1010
,
0000
0100
0000
0011
0000
0100
0000
0101
0000
0010
0000
0011
0000
0100
0000
1010
,
0000
0010
0000
0011
0000
0010
0000
0101
0000
0000
0000
1100
0000
0100
0000
1010
,
0000
0100
0000
0011
0000
0001
0000
0101
0000
0010
0000
1100
0000
0010
0000
0101
,
0000
0010
0000
0110
0000
0100
0000
1001
0000
0000
0000
0011
0000
0001
0000
0101
,
0000
0010
0000
0011
0000
0010
0000
1010
0000
0100
0000
0011
0000
0001
0000
0101
,
0000
0010
0000
0110
0000
0100
0000
1010
0000
0000
0000
0011
0000
0010
0000
1100
,
0000
0100
0000
0011
0000
0010
0000
1100
0000
0100
0000
0001
0010
0100
0000
1010
,
0000
0100
0000
0011
0000
0010
0000
0101
0000
0010
0000
1000
0100
0010
0000
0101
,
0000
0010
0000
0011
0000
0010
0000
0101
0000
0010
0000
0001
0010
0100
0000
1010
,
0000
0100
0000
0011
0000
0010
0000
0101
0000
0010
0000
1010
0000
0100
0000
0101
,
0000
0010
0000
1010
0000
0100
0000
0101
0000
0010
0000
0001
0010
0100
0000
0101
,
0000
0010
0000
0110
0000
0100
0000
1010
0000
0100
0000
1000
0100
0010
0000
0101
,
0000
0010
0000
1100
0000
0010
0000
0101
0000
0010
0000
0010
0100
0010
0100
0010
,
0100
0010
0100
0010
0100
0010
0100
0010
0100
0010
0000
1001
0000
0010
0000
0010
,
0000
0010
0000
0010
0100
2000
0000
0000
0000
0000
0000
3011
0000
0001
0000
0101
,
0000
0010
0000
1100
0000
0100
0000
0101
0000
0010
0000
1100
0000
0010
0000
0101
,
0000
0010
0000
0011
0000
0010
0000
0101
0000
0010
0000
0110
0000
0010
0000
1010
,
0000
0100
0000
0110
0000
0010
0000
0101
0000
0010
0000
1010
0000
0100
0000
0101
,
0000
0010
0000
1010
0000
0100
0000
0101
0000
0010
0000
1102
0000
1000
0000
1010
,
0000
0100
0000
1103
0000
0100
0000
1010
0000
0100
0000
0011
0000
0001
0000
0101
,
0000
0010
0000
1100
0000
0100
0000
0101
0000
0010
0000
0110
0000
0010
0000
1010
,
0000
0100
0000
0110
0000
1010
0000
0001
0010
0100
0000
1100
0000
1000
0100
0010
,
0000
0011
0000
0110
0000
0101
0000
0010
0000
1010
0000
0111
0000
0010
0000
0101
,
0000
0010
0000
0110
0000
0010
0000
1010
0000
0100
0000
0011
0000
0010
0000
0101
,
0000
0010
0000
0110
0000
0100
0000
1010
0000
0100
0000
0011
0000
0001
0000
0101
,
0000
0010
0000
1100
0000
0100
0000
0101
0000
0010
0000
1100
0000
0010
0000
0101
,
0000
0010
0000
0011
0000
0010
0000
0101
0000
0010
0000
0110
0000
0010
0000
1010
,
0000
0100
0000
0110
0000
0010
0000
0101
0000
0010
0000
1100
0000
0010
0000
0101
,
0000
0010
0000
0011
0000
0010
0000
0101
0000
0010
0000
0110
0000
0010
0000
1010
,
0000
0100
0000
0110
0000
0010
0000
0101
0000
0010
0000
0011
0000
0010
0000
1100
,
0000
0100
0000
0110
0000
0010
0000
0011
0000
0010
0000
1100
0000
0101
0000
1010
,
0000
0101
0000
0110
0000
0110
0000
1000
0100
0010
0000
0011
0000
0101
0000
1010
,
0000
0101
0000
1000
0100
0010
0000
0110
0000
0110
0000
0011
0000
1010
0000
0101
,
0000
1010
0000
1000
0100
0010
0000
0011
0000
0011
0000
0001
0100
0010
1000
0001
,
0100
0010
1000
0001
0010
1000
0100
0001
0010
1000
0100
0011
0000
0000
0000
1000
,
0100
0010
0000
0001
0010
0100
1000
0011
0000
0000
0000
1000
0100
0010
0000
0001
,
0010
0001
0010
1100
0010
0001
0000
0011
0000
0011
0000
1000
0100
0010
0000
0011
,
0000
0010
0000
0101
0000
0010
0000
0101
0000
0010
0000
1000
0100
0010
0001
1100
,
0000
0100
0000
0011
0000
1100
0000
0011
0000
0000
0000
2001
0000
0010
0000
0001
,
0000
0010
0000
0001
0000
0010
0000
0001
0000
0010
0000
3100
0000
0010
0000
0100
,
0000
0010
0000
0100
0000
0010
0000
0100
0000
0010
0000
1001
0000
0110
0000
1001
,
0000
0110
0000
1001
0000
0110
0000
1001
0000
0110
0000
0011
0000
1100
0000
0011
,
0000
1100
0000
0011
0000
1100
0000
0011
0000
1100
0000
0101
0000
1010
0000
0101
,
0000
1010
0000
0101
0000
1010
0000
0101
0000
1010
0000
0011
0000
0001
0000
0110
,
0000
0010
0000
1100
0000
0100
0000
0110
0000
0010
0000
1010
0000
0100
0000
0101
,
0000
0010
0000
0101
0000
0010
0000
1010
0000
0100
0000
0011
0000
0000
0000
0110
,
0000
0000
0000
1100
0000
0000
0000
0011
0000
0000
0000
0110
0000
0010
0000
0101
,
0000
0010
0000
1100
0000
0100
0000
0101
0000
0010
0000
0011
0000
0001
0000
0101
,
0000
0010
0000
0110
0000
0010
0000
1010
0000
0100
0000
0110
0000
0010
0000
0101
,
0000
0010
0000
1100
0000
0100
0000
0001
0010
0100
0000
1100
0000
0000
0000
0011
,
0000
0000
0000
1100
0000
0000
0000
0011
0000
0000
0000
0110
0000
0010
0000
0101
,
0000
0010
0000
1100
0000
0100
0000
0101
0000
0010
0000
0011
0000
0001
0000
0101
,
0000
0010
0000
0110
0000
0010
0000
1010
0000
0100
0000
0011
0000
0010
0000
1100
,
0000
0100
0000
0011
0000
0010
0000
1100
0000
0100
0000
1001
0000
1001
0000
1001
,
0000
1001
0000
1001
0000
1001
0000
1001
0000
1001
0000
0010
0100
0010
0100
0010
,
0100
0000
0000
0010
0000
0000
0100
0000
0000
0001
0000
1000
0000
0001
0000
1000
0000
0001
0000
1000
0000
0001
0000
1000
0000
0001
0000
1000
0000
0001
0000
1000
0000
0010
0000
0000
0000
0000
0000
0100
0000
0000
0000
0000
0000
0101
0000
0000
,
0000
0010
0000
1100
0000
0100
0000
0101
0000
0010
0000
1100
0000
0100
0000
0101
,
0000
0010
0000
0011
0000
0010
0000
0101
0000
0010
0000
1100
0000
0100
0000
0101
,
0000
0010
0000
0011
0000
0001
0000
0101
0000
0010
0000
1100
0000
0010
0000
0011
,
0000
0010
0000
1100
0000
0100
0000
0011
0000
0010
0000
2011
0000
0010
0000
0101
,
0000
0010
0000
0011
0000
0010
0000
0101
0000
0010
0000
3011
0000
0001
0000
0110
,
0000
0010
0000
0101
0000
0010
0000
1000
0100
0010
0000
0011
0000
0100
0000
1100
,
0000
0001
0000
1010
0000
0100
0000
1000
0100
0010
0000
0011
0000
0010
0100
1000
,
0000
1100
0000
0011
0000
1010
0000
0001
0000
1001
0000
1101
0000
0100
0000
1010
,
0000
0001
0000
1100
0000
0010
0000
0101
0000
0010
0000
0110
0000
0010
0000
1010
,
0000
0010
0000
0110
0000
0100
0000
0101
0000
0100
0000
1100
0000
0010
0000
1010
,
0000
0010
0000
0011
0000
0100
0000
0101
0000
0010
0000
0110
0000
0010
0000
1010
,
0000
0010
0000
0110
0000
0010
0000
0101
0000
0010
0000
0011
0000
0010
0000
1010
,
0000
0100
0000
1100
0000
0010
0000
0101
0000
0010
0000
0011
0000
0010
0000
0101
,
0000
0010
0000
0110
0000
0010
0000
0101
0000
0010
0000
0011
0000
0010
0000
1010
,
0000
0100
0000
1100
0000
0010
0000
0101
0000
0010
0000
0111
1000
0010
0100
1011
,
0100
0000
0000
1000
0000
0000
0010
0000
0000
1101
0000
0010
0000
0100
0000
0010
0000
0100
0000
1000
0000
0111
0000
1000
0000
0100
0000
0010
0000
0100
0000
0010
0000
2002
0000
0000
0000
0000
0000
0000
0000
0000
0000
0000
0000
0000
0000
0000
,
0000
0000
0000
0000
0000
0000
0000
3003
0000
0000
0000
0002
0000
0000
0000
0000
,
0000
0000
0000
0000
0000
0000
0000
0000
0000
0000
0000
0023
0000
0000
0000
0000
,
0000
0000
0000
0000
0000
0000
0000
0000
0000
0000
0000
0230
0000
0000
0000
0000
,
0000
0000
0000
0000
0000
0000
0000
0000
0000
0000
0000
2300
0000
0000
0000
0000
,
0000
0000
0000
0000
0000
0000
0000
0000
0000
0000
0000
3200
0000
0000
0000
0000
,
0000
0000
0000
0000
0000
0000
0000
0000
0000
0000
0000
0320
0000
0000
0000
0000
,
0000
0000
0000
0000
0000
0000
0000
0000
0000
0000
0000
0132
0000
0000
0000
0010
,
0100
0010
0100
1000
0100
1000
0100
0010
0100
0010
0100
0023
0100
0001
0100
0001
,
1000
0001
1000
0001
0100
0001
0100
1000
0100
1000
0001
0230
1000
0010
0001
0010
,
1000
0010
0001
0010
1000
0010
0001
0010
1000
0010
0001
2300
0100
0010
0001
0010
,
0100
0010
0001
0010
0100
0010
0001
0010
0100
0010
0001
3200
1000
0010
0001
0010
,
1000
0010
0001
0010
1000
0010
0001
0010
1000
0010
0001
0320
0100
1000
0100
0001
,
0100
1000
0100
0001
0100
1000
0100
0001
0100
1000
0100
1031
0000
0100
0000
0011
,
0000
0010
0000
0110
0000
0010
0000
1010
0000
0100
0000
0110
0000
0100
0000
0101
,
0000
0100
0000
1100
0000
0010
0000
0011
0000
0110
0000
1100
0010
0001
0010
0101
,
1000
0100
0010
0101
0010
0100
1000
0101
0010
0001
0010
2200
0000
0000
0000
0000
,
0000
0000
0000
0000
0000
0000
0000
3301
0010
0100
1000
0011
0000
0010
0000
1010
,
0000
0010
0000
0110
0000
0010
0000
1000
0100
0010
0001
1100
0000
0100
0000
0101
,
0000
0100
0000
0110
0000
0100
0000
0001
0010
0100
1000
0110
0000
0100
0000
0101
,
0000
0100
0000
1100
0000
0100
0000
0101
0000
0100
0000
0110
0000
0000
0000
1001
,
0000
0000
0000
1010
0000
0000
0000
0101
0000
0000
0000
0001
0010
0200
0000
1010
,
0000
0010
0000
0011
0000
1000
0000
1001
0000
0010
0000
0311
0000
0001
0000
1010
,
0000
0100
0000
0011
0000
0010
0000
1010
0000
0100
0000
2100
0000
0100
0000
0101
,
0000
0100
0000
0110
0000
0001
0000
0011
0000
3100
0000
1001
0000
0001
0000
0110
,
0000
1000
0000
1100
0000
0100
0000
0101
0000
0010
0000
1001
0000
0100
0000
0011
,
0000
0100
0000
0101
0000
0100
0000
1100
0000
0100
0000
1010
0000
0010
0000
0011
,
0000
0010
0000
1010
0000
0010
0000
0110
0000
0100
0000
1100
0000
0010
0000
0101
,
0000
0010
0000
1100
0000
0100
0000
0101
0000
0010
0000
1100
0000
0001
0000
1010
,
0000
0100
0000
0011
0000
1000
0000
0101
0000
0010
0000
0021
0000
0100
0000
0101
,
0000
1000
0000
1100
0000
0001
0000
0101
0000
0100
0000
1130
0000
0010
0000
0110
,
0000
0010
0000
1010
0000
0100
0000
0011
0000
1000
0000
0101
0000
0010
0000
1100
,
0000
1000
0000
0101
0000
0010
0000
0100
0010
0001
0000
0110
0000
0010
0100
1000
,
0000
0001
0000
0110
0000
0100
0000
0101
0000
0001
0000
1010
0000
0000
0000
0101
,
0000
0000
0000
1100
0000
0000
0000
0110
0000
0000
0000
0011
0000
0000
0000
1001
,
0000
0000
0000
1010
0000
0000
0000
1100
0000
0011
0000
0110
0000
0000
0000
1001
,
0000
0000
0000
0101
0000
0000
0000
0011
0000
0000
0000
0110
0000
0000
0000
1001
,
0000
0000
0000
0110
0000
0000
0000
1100
0000
0110
0000
1011
0000
0000
0000
1100
,
0000
0000
0000
0101
0000
0000
0000
0110
0000
0000
0000
0101
0000
0000
0000
1100
,
0000
0000
0000
0110
0000
1011
0000
1011
0000
1011
0000
0101
0000
0010
0000
0110
,
0000
0010
0000
0001
0000
0001
0000
0001
0000
0001
0000
0100
0010
0100
0010
0100
,
0010
0000
0000
0100
0000
0000
0010
0000
0000
1000
0000
0001
0000
1000
0000
0001
0000
1000
0000
0001
0000
1000
0000
0001
0000
1000
0000
0001
0000
1000
0000
0001
0000
0200
0000
0000
0000
0000
0000
0000
0000
0000
0000
0000
0000
1001
0000
0000
,
0000
0000
0000
0311
0000
0001
0000
0101
0000
0001
0000
0012
0000
0000
0000
1010
,
0000
0000
0000
0113
0000
0010
0000
1001
0000
0100
0000
0021
0000
0000
0000
0101
,
0000
0000
0000
1130
0000
0010
0000
1001
0000
0010
0000
0210
0000
0000
0000
1001
,
0000
0000
0000
0311
0000
0001
0000
0101
0000
0010
0000
0101
0000
0010
0000
0101
,
0000
0010
0000
1010
0000
0100
0000
1010
0000
0100
0000
0012
0000
0000
0000
1010
,
0000
0000
0000
0113
0000
0010
0000
1010
0000
0100
0000
0110
0000
0100
0000
1010
,
0000
0100
0000
0110
0000
0100
0000
1010
0000
0100
0000
0011
0000
0000
0000
0110
,
0000
0000
0000
1221
0000
0000
0000
1001
0000
0000
0000
1331
0000
0000
0000
0000
;
